Select a Collection
Close Window
or create a new one below:
Tip Designer
Share this thing
Send to Thingiverse user
Thing Details
19
Thing Files
282
Comments
321
Makes
55
Remixes
7
Apps
Contents
Summary
Print Settings
Remixed from:
Select a Collection
Close Window
or create a new one below:
Apr 28, 2018
Thing Card
License
Cute Dragon - more easy printing bySebastian_v650is licensed under theCreative Commons - Attribution - Non-Commercial - Share Alikelicense.
Summary

Van Halen - 5150 [HDTracks] (2013)

Brian Robeson attached latoycat.jpeg to ((FULL)) Van Halen - 5150 [HDTracks] (2013) Brian Robeson added ((FULL)) Van Halen - 5150 [HDTracks] (2013) to saismeminther Board jectbarosu. View credits, reviews, tracks and shop for the 2013 File release of "5150" on Discogs.. ===== foobar2000 1.1.12a / Dynamic Range Meter 1.1.1 log date: 2013-09-17 10:26:53 ----- Analyzed: Van Halen / 5150 ----- DR Peak RMS Duration Track ----- DR12 -0.10 dB -15.01 dB 4:04 01-Good Enough DR12 -1.14 dB -14.53 dB 3:47 02-Why Can't This Be Love DR12 -2.07 dB -15.77 dB 4:37 03-Get Up DR11 -0.16 dB -14.26 dB 4:54 04-Dreams DR12 -1.25 dB -15.53 dB 5:06 05-Summer Nights DR11 -1.76 dB -16.11 dB …. Van Halen – Studio Albums 1978-1984 [HDTracks FLAC 24/192] July 23, 2020 Hi-Res Digital Download. Van ... Van Halen – 5150 [FLAC 24/44,1] July 23, 2020 Hi-Res Digital Download. Van Halen – 5150 [FLAC 24/44,1] February 2, 2020 Hi-Res Digital Download. Van Halen – 1984 December 4, 2019 Lossless. Van Halen – In The Club Golden West Ballroom 1976 September 11, 2018 Lossless. Proudly powered by …. 5150 (pronounced "fifty-one-fifty") is the seventh studio album by American rock band Van Halen. It was released on March 24, 1986 by Warner Bros. Records and was the first of four albums to be recorded with lead singer Sammy Hagar, who replaced David Lee Roth. 64bdbb59a4 24 5150 (pronounced "fifty-one-fifty") is the seventh studio album by American rock band Van Halen.It was released on March 24, 1986 by Warner Bros. Records and was the first of four albums to be recorded with lead singer Sammy Hagar, who replaced David Lee Roth.The album was named after Eddie Van Halen's home studio, 5150, in turn named after a California law enforcement term for a mentally disturbed …

Important Notice! Someone tried to vandalise the database by deleting about 76k entries. I restored those entries and have temporarily disabled the delete and edit functions to prevent further damage.. ===== foobar2000 1.1.12a / Dynamic Range Meter 1.1.1 log date: 2013-09-17 10:26:53 ----- Analyzed: Van Halen / 5150 ----- DR Peak RMS Duration Track ----- DR12 -0.10 dB -15.01 dB 4:04 01-Good Enough DR12 -1.14 dB -14.53 dB 3:47 02-Why Can't This Be Love DR12 -2.07 dB -15.77 dB 4:37 03-Get Up DR11 -0.16 dB -14.26 dB 4:54 04-Dreams DR12 -1.25 dB -15.53 dB 5:06 05-Summer Nights DR11 -1.76 dB -16.11 dB …. Concert: Van Halen Live In New Haven, Connecticut, United StatesVenue: New Haven ColiseumTour: 5150Associated Album: 5150Years: 1986"Copyright Disclaimer Und.... 2013 - Motorhead - Aftershock [HDTracks 24-44 FLAC] 1 Year+ - in Music582.32 MB : 1: 0: Note : Feel free to post any comments about this torrent, including links to Subtitle, samples, screenshots, or any other relevant information. Watch 1986 - Van Halen - 5150 [HDTracks 24-44 FLAC] Full Movie Online Free, Like 123Movies, FMovies, Putlocker, Netflix or Direct Download Torrent 1986 - Van Halen - 5150 [HDTracks …. Download Van Halen - 1984 (HDtracks) [24-192kHz HD FLAC] torrent for free, Downloads via Magnet Link or FREE Movies online to Watch in LimeTorrents.pro Hash ...

Jun 17, 2021 — Van Halen - 5150 [HDTracks] (2013) · 720p Aparichit download · The Hero 2012 Movie Download 1080p · akka tho dengulata stories in telugu ... May 23, 2020 — October 15, 2013, 04:20:18 pm ... Mind Control Theatre Presents: "The ... Van Halen - 5150 [HDTracks] (2013) · download fiqh dakwah mustafa ... PBTHAL Archives : DataHoarder May 10, 2013 · PBTHAL is good at what he does.. .... View credits, reviews, tracks and shop for the 2013 File release of "5150" on Discogs.. 2013 - Motorhead - Aftershock [HDTracks 24-44 FLAC] 1 Year+ - in Music582.32 MB : 1: 0: Note : Feel free to post any comments about this torrent, including links to Subtitle, samples, screenshots, or any other relevant information. Watch 1986 - Van Halen - 5150 [HDTracks 24-44 FLAC] Full Movie Online Free, Like 123Movies, FMovies, Putlocker, Netflix or Direct Download Torrent 1986 - Van Halen - 5150 [HDTracks …. Important Notice! Someone tried to vandalise the database by deleting about 76k entries. I restored those entries and have temporarily disabled the delete and edit functions to prevent further damage.

Print Settings

Rafts:

No

Supports:

No

Notes:

Support is included in the model.

Select a Collection
Close Window
or create a new one below:
May 17, 2017
Thing Card
Select a Collection
Close Window
or create a new one below:
May 10, 2021
Thing Card
Select a Collection
Close Window
or create a new one below:
Jun 20, 2017
Thing Card
Select a Collection
Close Window
or create a new one below:
Mar 27, 2019
Thing Card
Select a Collection
Close Window
or create a new one below:
Dec 24, 2016
Thing Card
Back to Top